Sign in to follow this  
💗Abhijith💗

Koppayile Kodumkaattu (2016) Malayalam DVDRip x264 AAC Chaps 750MB ZippyMovieZ ExCluSivE

Recommended Posts

First On Net

Koppayile Kodumkaattu (2016) Malayalam DVDRip x264 AAC Chaps 750MB ZippyMovieZ ExCluSivE

14520472_1769621183307673_89153894304059

 

Quote

General

Format                                   : Matroska
Format version                           : Version 4 / Version 2
File size                                : 746 MiB
Duration                                 : 1 h 47 min
Overall bit rate                         : 967 kb/s

Video
ID                                       : 1
Format                                   : AVC
Format/Info                              : Advanced Video Codec
Format profile                           : [email protected]
Format settings, CABAC                   : Yes
Format settings, ReFrames                : 4 frames
Codec ID                                 : V_MPEG4/ISO/AVC
Duration                                 : 1 h 47 min
Bit rate                                 : 806 kb/s
Width                                    : 720 pixels
Height                                   : 310 pixels
Display aspect ratio                     : 2.35:1
Frame rate mode                          : Variable
Frame rate                               : 23.976 FPS
Color space                              : YUV
Chroma subsampling                       : 4:2:0
Bit depth                                : 8 bits
Scan type                                : Progressive
Bits/(Pixel*Frame)                       : 0.151
Stream size                              : 621 MiB (83%)
Writing library                          : x264 core 142 r2479 dd79a61
Default                                  : Yes
Forced                                   : No
Color range                              : Limited
Color primaries                          : BT.601 NTSC
Transfer characteristics                 : BT.709
Matrix coefficients                      : BT.601

Audio
ID                                       : 2
Format                                   : AAC
Format/Info                              : Advanced Audio Codec
Format profile                           : LC
Codec ID                                 : A_AAC
Duration                                 : 1 h 47 min
Bit rate                                 : 159 kb/s
Channel(s)                               : 2 channels
Channel positions                        : Front: L R
Sampling rate                            : 48.0 kHz
Frame rate                               : 46.875 FPS (1024 spf)
Compression mode                         : Lossy
Delay relative to video                  : -21 ms
Stream size                              : 123 MiB (16%)
Language                                 : Malayalam
Default                                  : Yes
Forced                                   : No

Menu
00:00:00.000                             : :Chapter 1
00:05:08.308                             : :Chapter 2
00:16:38.914                             : :Chapter 3
00:27:51.169                             : :Chapter 4
00:39:01.005                             : :Chapter 5
00:49:08.729                             : :Chapter 6
00:58:48.108                             : :Chapter 7
01:11:54.843                             : :Chapter 8
01:25:00.311                             : :Chapter 9
01:28:50.608                             : :Chapter 10
01:44:33.050                             : :Chapter 11
01:47:46.076                             : :Chapter 12

Screens

Quote

 

~Extreme Seeding Started~

Please click 'Thanks' as a token of appreciation of our effort.

QnC2C27.png

[ZippyMovieZ.CH] Koppayile Kodumkaattu (2016) Malayalam DVDRip x264 AAC Chaps 750MB.torrent

Magnet Link

Share this post


Link to post
Share on other sites
Loading...


Create an account or sign in to comment

You need to be a member in order to leave a comment

Create an account

Sign up for a new account in our community. It's easy!

Register a new account

Sign in

Already have an account? Sign in here.

Sign In Now

Sign in to follow this