Sign in to follow this  
💗Abhijith💗

Tiyaan (2017) Malayalam DVDRip 700MB 5.1 x264 AAC E-subs ZippyMovieZ ExCluSivE

Recommended Posts

First on net 

Tiyaan (2017) Malayalam DVDRip 700MB x264 AAC ZippyMovieZ ExCluSivE

19260801_1938463786408473_3968558753205837900_n.thumb.jpg.d379841ba47d613395a7f7a3649ff076.jpg

Quote

General
Format                                   : Matroska
Format version                           : Version 4 / Version 2
File size                                : 698 MiB
Duration                                 : 2 h 46 min
Overall bit rate                         : 588 kb/s

 

Video
ID                                       : 1
Format                                   : AVC
Format/Info                              : Advanced Video Codec
Format profile                           : [email protected]
Format settings, CABAC                   : Yes
Format settings, ReFrames                : 4 frames
Codec ID                                 : V_MPEG4/ISO/AVC
Duration                                 : 2 h 46 min
Bit rate                                 : 458 kb/s
Width                                    : 640 pixels
Height                                   : 272 pixels
Display aspect ratio                     : 2.35:1
Frame rate mode                          : Variable
Frame rate                               : 23.976 FPS
Color space                              : YUV
Chroma subsampling                       : 4:2:0
Bit depth                                : 8 bits
Scan type                                : Progressive
Bits/(Pixel*Frame)                       : 0.110
Stream size                              : 544 MiB (78%)
Writing library                          : x264 core 112
Language                                 : English
Default                                  : Yes
Forced                                   : No
Color range                              : Limited
Color primaries                          : BT.601 NTSC
Transfer characteristics                 : BT.709
Matrix coefficients                      : BT.601

Audio
ID                                       : 2
Format                                   : AAC
Format/Info                              : Advanced Audio Codec
Format profile                           : LC
Codec ID                                 : A_AAC
Duration                                 : 2 h 46 min
Bit rate                                 : 128 kb/s
Channel(s)                               : 2 channels
Channel positions                        : Front: L R
Sampling rate                            : 48.0 kHz
Frame rate                               : 46.875 FPS (1024 spf)
Compression mode                         : Lossy
Stream size                              : 152 MiB (22%)
Language                                 : Malayalam
Default                                  : Yes
Forced                                   : No

Text
ID                                       : 3
Format                                   : UTF-8
Codec ID                                 : S_TEXT/UTF8
Codec ID/Info                            : UTF-8 Plain Text
Duration                                 : 2 h 44 min
Bit rate                                 : 41 b/s
Count of elements                        : 1848
Stream size                              : 49.4 KiB (0%)

Language                                 : English
Default                                  : Yes
Forced                                   : No

Menu
00:00:00.000                             : en:Chapter 1
00:09:31.320                             : en:Chapter 2
00:16:43.886                             : en:Chapter 3
00:32:52.136                             : en:Chapter 4
00:42:13.581                             : en:Chapter 5
00:49:54.825                             : en:Chapter 6
00:54:26.680                             : en:Chapter 7
01:09:41.060                             : en:Chapter 8
01:24:55.557                             : en:Chapter 9
01:36:14.902                             : en:Chapter 10
01:43:27.501                             : en:Chapter 11
01:49:47.080                             : en:Chapter 12
01:56:20.690                             : en:Chapter 13
02:07:51.497                             : en:Chapter 14
02:12:32.911                             : en:Chapter 15
02:24:49.514                             : en:Chapter 16
02:30:53.427                             : en:Chapter 17
02:40:03.060                             : en:Chapter 18

 

~SCREENSHOTS~

Quote

 

~Extreme Seeding Started~
Please click 'Thanks' as a token of appreciation of our effort.

QnC2C27.png

[ZippyMovieZ.PW] Tiyaan (2017) Malayalam DVDRip 700MB 5.1 x264 AAC ZippyMovieZ ExCluSivE.torrent

Magnet Link

 

 

  • Like 1

Share this post


Link to post
Share on other sites
Loading...


Create an account or sign in to comment

You need to be a member in order to leave a comment

Create an account

Sign up for a new account in our community. It's easy!

Register a new account

Sign in

Already have an account? Sign in here.

Sign In Now

Sign in to follow this