Sign in to follow this  
Sa!n7 SaRca5m

Tiyaan (2017) Download Malayalam Movie 1080p Upscaled DVD9 x264 AC3 3.5GB - ZERG

Recommended Posts

Tiyaan (2017) Download Malayalam Movie 1080p Upscaled DVD9 x264 AC3 3.5GB - ZERG

19260801_1938463786408473_3968558753205837900_n.jpg

Quote

General
Format                                   : Matroska
Format version                           : Version 4 / Version 2
File size                                : 3.59 GiB
Duration                                 : 2 h 46 min
Overall bit rate                         : 3 097 kb/s
Writing application                      : Lavf56.15.100
Writing library                          : Lavf56.15.100

Video
ID                                       : 1
Format                                   : AVC
Format/Info                              : Advanced Video Codec
Format profile                           : [email protected]
Format settings, CABAC                   : No
Format settings, ReFrames                : 1 frame
Codec ID                                 : V_MPEG4/ISO/AVC
Duration                                 : 2 h 46 min
Bit rate                                 : 2 715 kb/s
Width                                    : 1 920 pixels
Height                                   : 1 080 pixels
Display aspect ratio                     : 16:9
Frame rate mode                          : Constant
Frame rate                               : 23.976 (24000/1001) FPS
Color space                              : YUV
Chroma subsampling                       : 4:2:0
Bit depth                                : 8 bits
Scan type                                : Progressive
Bits/(Pixel*Frame)                       : 0.055
Stream size                              : 3.15 GiB (88%)

Audio
ID                                       : 2
Format                                   : AC-3
Format/Info                              : Audio Coding 3
Format settings, Endianness              : Big
Codec ID                                 : A_AC3
Duration                                 : 2 h 46 min
Bit rate mode                            : Constant
Bit rate                                 : 320 kb/s
Channel(s)                               : 2 channels
Channel positions                        : Front: L R
Sampling rate                            : 44.1 kHz
Frame rate                               : 28.711 FPS (1536 spf)
Bit depth                                : 16 bits
Compression mode                         : Lossy
Delay relative to video                  : 3 ms
Stream size                              : 380 MiB (10%)
Service kind                             : Complete Main
Default                                  : Yes
Forced                                   : No

Screenshots

Quote

 

Download Links

Quote

~Extreme Seeding Started~
Please click 'Thanks' as a token of appreciation of our effort.

QnC2C27.png

[ZippyMovieZ.PW] Tiyaan (2017) Malayalam 1080p Upscaled DVD9 x264 AC-3 3.5GB - ZERG.torrent

Magnet link

Share this post


Link to post
Share on other sites
Loading...


Create an account or sign in to comment

You need to be a member in order to leave a comment

Create an account

Sign up for a new account in our community. It's easy!

Register a new account

Sign in

Already have an account? Sign in here.

Sign In Now

Sign in to follow this