Sign in to follow this  
=-:(Lovely RangeR):-=

Kathanayagan (2017) Tamil HDRip x264 700MB ESubs [ZippyMoviez Team]

Recommended Posts

Kathanayagan (2017) Tamil HDRip x264 700MB ESubs [ZippyMoviez Team]

3929c3d589ed820e80a893e49cb9e023.jpg

Info

Format                                   : Matroska
Format version                           : Version 4 / Version 2
File size                                : 710 MiB
Duration                                 : 1 h 56 min
Overall bit rate                         : 851 kb/s
Movie name                               : www.ZippyMoviez.xyz
Encoded date                             : UTC 2017-09-29 03:07:49
Writing application                      : mkvmerge v9.7.1 ('Pandemonium') 32bit
Writing library                          : libebml v1.3.4 + libmatroska v1.4.5

Video
ID                                       : 1
Format                                   : AVC
Format/Info                              : Advanced Video Codec
Format profile                           : [email protected]
Format settings, CABAC                   : Yes
Format settings, RefFrames               : 4 frames
Codec ID                                 : V_MPEG4/ISO/AVC
Duration                                 : 1 h 56 min
Bit rate                                 : 753 kb/s
Width                                    : 640 pixels
Height                                   : 272 pixels
Display aspect ratio                     : 2.35:1
Frame rate mode                          : Constant
Frame rate                               : 25.000 FPS
Color space                              : YUV
Chroma subsampling                       : 4:2:0
Bit depth                                : 8 bits
Scan type                                : Progressive
Bits/(Pixel*Frame)                       : 0.173
Stream size                              : 628 MiB (88%)
Title                                    : www.ZippyMoviez.xyz
Writing library                          : x264 core 148 r2744 b97ae06
Language                                 : English
Default                                  : Yes
Forced                                   : No

Audio
ID                                       : 2
Format                                   : MPEG Audio
Format version                           : Version 1
Format profile                           : Layer 3
Mode                                     : Joint stereo
Mode extension                           : MS Stereo
Codec ID                                 : A_MPEG/L3
Codec ID/Hint                            : MP3
Duration                                 : 1 h 56 min
Bit rate mode                            : Constant
Bit rate                                 : 96.0 kb/s
Channel(s)                               : 2 channels
Sampling rate                            : 48.0 kHz
Frame rate                               : 41.667 FPS (1152 SPF)
Compression mode                         : Lossy
Stream size                              : 80.1 MiB (11%)
Title                                    : www.ZippyMoviez.xyz
Writing library                          : LAME3.99.5
Language                                 : Tamil
Default                                  : Yes
Forced                                   : No

Text
ID                                       : 3
Format                                   : UTF-8
Codec ID                                 : S_TEXT/UTF8
Codec ID/Info                            : UTF-8 Plain Text
Duration                                 : 1 h 56 min
Bit rate                                 : 73 b/s
Count of elements                        : 2085
Stream size                              : 62.8 KiB (0%)
Title                                    : www.ZippyMoviez.xyz
Language                                 : English
Default                                  : No
Forced                                   : No

Screenshot

f121c93186a811a10d506a15b053221b.th.png 74e5f4c5825bd9f6fa0d57b73d94c301.th.png a6539a9a8d5784c57fb5c6ce260f6080.th.png 0da0a6d3a2809b3a1c7ff90417eb5693.th.png d7103358b4541ab5216d789aaa705925.th.png f3208c669b519b0bba1ba754fe85d9de.th.png 44bdb2136c93db2b2fe87547d39eafdc.th.png

Download Link

Quote

QnC2C27.png

www.ZippyMoviez.xyz - Kathanayagan (2017) Tamil HDRip x264 700MB ESubs.mkv.torrent

Magnet link

:D Please Seed Back After Download :D

 

  • Thanks 1

Share this post


Link to post
Share on other sites
Loading...


Create an account or sign in to comment

You need to be a member in order to leave a comment

Create an account

Sign up for a new account in our community. It's easy!

Register a new account

Sign in

Already have an account? Sign in here.

Sign In Now

Sign in to follow this