Sign in to follow this  
=-:(Lovely RangeR):-=

Karuppan (2017) Tamil DVDScr x264 700MB [Team ZippyMoviez]

Recommended Posts

Karuppan (2017) Tamil DVDScr  x264 700MB

The Team

2f4e9076759f21dd7f8f136f7f542946.jpg

Info

Quote

Format                                   : Matroska
Format version                           : Version 4 / Version 2
File size                                : 707 MiB
Duration                                 : 2 h 16 min
Overall bit rate                         : 726 kb/s
 

Video
ID                                       : 1
Format                                   : AVC
Format/Info                              : Advanced Video Codec
Format profile                           : [email protected]
Format settings, CABAC                   : Yes
Format settings, RefFrames               : 4 frames
Codec ID                                 : V_MPEG4/ISO/AVC
Duration                                 : 2 h 16 min
Bit rate                                 : 628 kb/s
Width                                    : 608 pixels
Height                                   : 256 pixels
Display aspect ratio                     : 2.40:1
Frame rate mode                          : Constant
Frame rate                               : 25.000 FPS
Color space                              : YUV
Chroma subsampling                       : 4:2:0
Bit depth                                : 8 bits
Scan type                                : Progressive
Bits/(Pixel*Frame)                       : 0.161
Stream size                              : 612 MiB (86%)


Language                                 : English
Default                                  : Yes
Forced                                   : No

Audio
ID                                       : 2
Format                                   : MPEG Audio
Format version                           : Version 2
Format profile                           : Layer 3
Mode                                     : Joint stereo
Mode extension                           : MS Stereo
Codec ID                                 : A_MPEG/L3
Codec ID/Hint                            : MP3
Duration                                 : 2 h 16 min
Bit rate mode                            : Constant
Bit rate                                 : 96.0 kb/s
Channel(s)                               : 2 channels
Sampling rate                            : 22.05 kHz
Frame rate                               : 38.281 FPS (576 SPF)
Compression mode                         : Lossy
Stream size                              : 93.5 MiB (13%)
Writing library                          : LAME3.99.5
Language                                 : English
Default                                  : Yes
Forced                                   : No

Screenshot

3394f53b0db2bf7cf012dc6e80957679.th.png c4d14009d4447c012c788a1d14558cc4.th.png 687713b6d4e62f5c706290025aa7570e.th.png 09fc7e5fe7fecc0c033171627e6ac7c1.th.png 7699c5b03d2bbcab829d046887dd245d.th.png 7680e5d6faf529eee463b87075dd76a5.th.png 2f4e96acc7adc5c45a04749c2a444113.th.png d6c4cbeb610a31db526e60e168ebd318.th.png

Download Link

Quote

Please click 'Thanks' as a token of appreciation of our effort.

QnC2C27.png

www.ZippyMoviez.xyz - Karuppan (2017) Tamil DVDScr x264 700MB.mkv.torrent

Magnet Link

Please Seed Back After Download

 

  • Like 1

Share this post


Link to post
Share on other sites
Loading...


Create an account or sign in to comment

You need to be a member in order to leave a comment

Create an account

Sign up for a new account in our community. It's easy!

Register a new account

Sign in

Already have an account? Sign in here.

Sign In Now

Sign in to follow this